.cue 文件格式

news/2024/7/24 13:44:51/

cue文件格式(基础版)

PERFORMER "陈小春"
TITLE "抱一抱"
FILE "陈小春.-.[抱一抱].专辑.(ape).ape" WAVE
TRACK 01 AUDIO
    TITLE "抱一抱"
    INDEX 01 00:00:00
TRACK 02 AUDIO
    TITLE "我爱的人"
    INDEX 01 04:20:00
TRACK 03 AUDIO
    TITLE "二楞子"
    INDEX 01 08:47:00
TRACK 04 AUDIO
    TITLE "谁说我在掉眼泪"
    INDEX 01 12:36:00
TRACK 05 AUDIO
    TITLE "我有什么资格不要你"
    INDEX 01 17:44:00
TRACK 06 AUDIO
    TITLE "装聋作哑"
    INDEX 01 22:43:00
TRACK 07 AUDIO
    TITLE "有这么难吗"
    INDEX 01 26:58:00
TRACK 08 AUDIO
    TITLE "何必太认真"
    INDEX 01 31:26:00
TRACK 09 AUDIO
    TITLE "我不是一百分"
    INDEX 01 36:27:00
TRACK 10 AUDIO
    TITLE "比永远更远"
    INDEX 01 40:58:00

cue文件格式(完整版)

PERFORMER "陈小春"
TITLE "独家记忆 (香港版)"
FILE "陈小春.-.[独家记忆(香港版)].专辑.(APE).ape" WAVE
TRACK 01 AUDIO
    TITLE "自我作主"
    PERFORMER "陈小春"
    REM GENRE Pop
    REM DATE 2008
    INDEX 01 00:00:00
TRACK 02 AUDIO
    TITLE "难朋友"
    PERFORMER "陈小春"
    REM GENRE Pop
    REM DATE 2008
    INDEX 00 03:08:26
    INDEX 01 03:11:26
TRACK 03 AUDIO
    TITLE "独家记忆"
    PERFORMER "陈小春"
    REM GENRE Pop
    REM DATE 2008
    INDEX 00 06:59:58
    INDEX 01 07:02:58

转载于:https://www.cnblogs.com/smartdog/archive/2011/05/23/2054643.html


http://www.ppmy.cn/news/617243.html

相关文章

CUE文件制作详解

(转自:百度百科) (cuesheet)是指光盘映像(镜像)辅助文件或称标记文件,按照文本文件格式编制。它在刻录光盘映像文件时,起很重要的作用。它可以指挥刻录软件刻什么格式&am…

CUE 文件格式说明

CUE 文件,即 CUESheets ,光盘镜像辅助文件。通常用于光盘刻录、音乐播放等等。 比如用 EAC 刻录CD光盘,或者用 Foobar2000 播放整轨音乐文件。 CUE 文件是非常好的音乐专辑信息载体,使用它可以使专辑信息和音乐文件分离&#xff0…

bin和cue怎么合并,BIN和CUE文件如何打开?

要下个虚拟光驱吧 就是DemonManager 一般到正规网站下个游戏,压缩包内都有的吧。。 步骤是这样的: bin 二进制文件,其用途依系统或应用而定。 也就是说,一般来讲是机器代码,汇编语言编译后的结果,(DOS下汇编…

android cue文件播放器,手机cue文件怎么打开(支持cue的安卓播放器)

[ 路丁前言 ]大家都知道,时下的手机上普及化变成大伙儿日常生活必需的游戏娱乐专用工具。以便解决社会发展大环境下的各种各样转变,人工智能技术变成新时期的期待。日常生活每一个人都会为更为简易与方便快捷的智能化来应对一些事情,生产商也…

CUE 文件详解

百科名片 (cuesheet)是指光盘映像(镜像)辅助文件或称标记文件,按照文本文件格式编制。它在刻录光盘映像文件时,起很重要的作用。它可以指挥刻录软件刻什么格式,刻录那些内容,从哪里开…

CUE文件详解,不用再为没有CUE文件发愁。

说明一下CUE文件的各项参数代表什么东西,如果你下载下来的APE文件没配有CUE文件,你就可以自行拿完好的CUE文件来进行简单的修改就可以用了。 以下红色字体为我们要修改的地方,绿色字体为我加的旁注。首先在一个好的CUE文件上点右键&#xff0…

CUE 文件及其格式说明

CUE 文件及其格式说明 CUE 文件,即 CUESheets ,光盘镜像辅助文件。通常用于光盘刻录、音乐播放等等。比如用 EAC 刻录CD光盘,或者用 Foobar2000 播放整轨音乐文件。 CUE 文件是非常好的音乐专辑信息载体,使用它可以使专辑信息和音…

CUE文件

cue文件无法正常打开 多数情况是路径的指定出现问题,用编辑器打开cue文件,将 FILE “” WAVE 这句引号的部分内容改为完整的文件名(同目录下整轨文件名,包括后缀名)。 根据cue文件将整轨文件分割为多个单个文件 …

用Python搭建监控平台详解

概要 监控和运维,是互联网工业链上非常重要的一环。监控的目的就是防患于未然。通过监控,我们能够及时了解到企业网络的运行状态。一旦出现安全隐患,你就可以及时预警,或者是以其他方式通知运维人员,让运维监控人员有时…

使用高德地图获取浏览器的定位

打开浏览器时,获取浏览器的定位。再谷歌浏览器中测试,常常出现请求时间超时的情况,在IE浏览器就能完美运行,不知道有没有好的替代方案 AMapLoader.load({key: "", // 申请好的Web端开发者Key,首次调用 load …

adminlte生成php,PHP的Laravel框架中使用AdminLTE模板来编写网站后台界面?

AdminLTE 是一个基于Bootstrap 3.x的免费高级管理控制面板主题,完全响应式管理,适合从小型移动设备到大型台式机很多的屏幕分辨率。 AdminLTE的特点: 充分响应 可分类的仪表盘 18插件和3自定义插件 重量轻和快速 与大多数主流浏览…

您的计算机性能不足 无法运行,如何确保您的计算机可以完美运行Win10 1909?有关如何优化设置的提示...

如何确保您的计算机可以完美运行Win10 1909?有关如何优化设置的提示. 最近,Microsoft win10 1909的原始系统已更新. 网民已经安装了新版本的系统. 当使用Win10 1909版本时,他们总是说操作速度变慢,除非某些用户使用内存不足的计算…

释放磁盘空间_Windows 7下释放磁盘空间的指南

释放磁盘空间 This is an "updated for Windows 7" version of my popular original article Guide to Freeing up Disk Space under Windows Vista. 这是我颇受欢迎的原始文章“在Windows Vista下释放磁盘空间的指南”的“ Windows 7更新”版本。 Ive got a 256 gig…

Windows Vista下释放磁盘空间的指南

Ive got a smallish C: drive, about 140G, but noticed that in the last week or so Id had only 200megs free. Not cool. A few hours later, I have 84.4G free. Heres now: 我的C:驱动器很小,大约140G,但是注意到在过去的一周左右&…

如何永久正确地组织设计文件

“Wait, maybe it’s in this folder. Did I e-mail it to myself? Doesn’t matter, it’s on Google Drive anyway … if only I knew on which Google account. Let me find my password real quick”. “等等,也许在这个文件夹中。 我是否通过电子邮件发送给自…

码农飞升记-05-JDK压缩包的下载安装方式以及环境变量的配置

前面我们介绍了 《Java是什么?》、《OracleJDK是什么?OracleJDK的版本怎么选择?》、《OpenJDK是什么?》以及《OracleJDK 与 OpenJDK 的区别vb.net教程和联系以及 OracleJDK builds 与其他 OpenJDK builds 的选择问题》,相信大家已经充分了解了 Java 的概念、Ora…

深度学习之初识篇——小白也能跑通的深度学习万能框架【交通标识牌检测】

目录 环境下载;点击即可数据集下载;点击即可深度学习环境配置点击下载深度学习环境数据集准备使用自己标注的数据集使用标注软件数据准备VOC标签格式转yolo格式并划分训练集和测试集 部署和训练深度学习项目克隆项目获得预训练权重训练自己的模型 训练参…

Hexo 个人博客搭建完整版笔记

前言 2022-06-22,成都,夜晚,下雨,个人博客搭建完毕!个人博客链接在此,欢迎访问~ 第一部分根据 搭建笔记 中的方法完成 Hexo Shoka 主题 Github 博客部署。 2022-07-02,成都,下午…

电脑日常维护十必须

本文中清除垃圾的运行命令,我已经用我的笔记本试验过了,有需要的同志可以放心大胆的使用!如果有问题的话我的笔记本也就挂啦!

二、代码实现深度学习道路训练样本数据的制作(代码部分详解)——重复工作+多次返工的血泪史

使用python读取文件夹对图片进行批量裁剪 通过第一部分操作arcgis制作了一部分样本数据 分辨率与原相片保持一致 为6060*6060 具体如图所示: 而我们深度学习一般使用的分辨率是1024和512的 这两个数字都无法整除6060 因此我在这里选择裁剪成606 代码参考了这篇博…